Author Topic: Dos problemas con avidemux  (Read 2377 times)

gino2812

  • Newbie
  • *
  • Posts: 33
Dos problemas con avidemux
« on: May 20, 2016, 03:20:52 AM »
PROBLEMA 01:
Tenia la version 2.6.10 que funcionaba muy bien, hasta que me llegó un video en mp4 (x264) de 10bits que queria procesar a 8 bits y no pude.
(adjunto archivo txt mediainfo del video original por convertir)

Luego de varios intentos, cambié por el 2.6.12, creyendo que así podría hacerlo, pero el mismo error salió luego de 1 segundo de proceso:
'THE VIDEO HAS BEEN SAVED BUT SEEMS TO BE INCOMPLETE'

El video tiene audio aac 5.1. Intenent'e convertirlo a stereo usando las 2 opciones de AAC del audio en el avidemux y no funcionó con ninguna.
Tambien probé sin procesar el audio (copiarlo tal cual) y tampoco funcionó.



PROBLEMA 02:
En otro video (mp4 x264 8bits) intenté pegar un logo png de borde irregular.
El avidemux no lo reconoce y en la previsualizacion sale la posicion como lluvia de colores, en casi toda la columna del video.
Obvio el logo no es reconocible.
Intenté convertirlo en gif y bmp, pero igual no los aceptó.
solo lo acepta en jpg, pero hace el borde dentro de un cuadrado y lo rellena de color blanco.
« Last Edit: May 20, 2016, 03:23:15 AM by gino2812 »

Jan Gruuthuse

  • Hero Member
  • *****
  • Posts: 4919
Re: Dos problemas con avidemux
« Reply #1 on: May 20, 2016, 05:09:11 AM »
PROBLEMA 01:
Tenia la version 2.6.10 que funcionaba muy bien, hasta que me llegó un video en mp4 (x264) de 10bits que queria procesar a 8 bits y no pude.
(adjunto archivo txt mediainfo del video original por convertir)
Algunos de 10 bits hace. 2 segundos forma de extracto 4K de Sony HDR Campo de HEVC re-codificada, resultado final en YouTube.
Some 10-bit does. 2 seconds extract form Sony 4K HDR Camp HEVC re-encoded, end result on YouTube: 4K 10-bit HDR HEVC to AVC 8-bit

Fuente de vídeo de 18 MB @ wetransfer.com descarga 7 días válida:
Original video source 18 MB ‘Sony 4K HDR 10 bit sample 2 seconds duration’ @ wetransfer.com download 7 days valid.
Will be deleted on 27 May, 2016

« Last Edit: May 20, 2016, 03:55:06 PM by Jan Gruuthuse »

Jan Gruuthuse

  • Hero Member
  • *****
  • Posts: 4919
Re: Dos problemas con avidemux
« Reply #2 on: May 20, 2016, 07:40:01 AM »
Luego de varios intentos, cambié por el 2.6.12, creyendo que así podría hacerlo, pero el mismo error salió luego de 1 segundo de proceso:
'THE VIDEO HAS BEEN SAVED BUT SEEMS TO BE INCOMPLETE'
Probar el otro muxor mp4:

Output Format
MP4 Muxer => MP4v2 Muxer

Jan Gruuthuse

  • Hero Member
  • *****
  • Posts: 4919
Re: Dos problemas con avidemux
« Reply #3 on: May 20, 2016, 07:42:13 AM »
PROBLEMA 02:
En otro video (mp4 x264 8bits) intenté pegar un logo png de borde irregular.
El avidemux no lo reconoce y en la previsualizacion sale la posicion como lluvia de colores, en casi toda la columna del video.
Obvio el logo no es reconocible.
Intenté convertirlo en gif y bmp, pero igual no los aceptó.
solo lo acepta en jpg, pero hace el borde dentro de un cuadrado y lo rellena de color blanco.

png de entrada está roto.
png input is broken.

jpg no tiene fondo alfa (invisible)
jpg does not have alpha background (invisible)

gino2812

  • Newbie
  • *
  • Posts: 33
Re: Dos problemas con avidemux
« Reply #4 on: May 20, 2016, 05:45:13 PM »
Luego de varios intentos, cambié por el 2.6.12, creyendo que así podría hacerlo, pero el mismo error salió luego de 1 segundo de proceso:
'THE VIDEO HAS BEEN SAVED BUT SEEMS TO BE INCOMPLETE'
Probar el otro muxor mp4:

Output Format
MP4 Muxer => MP4v2 Muxer

Aqui el mensaje de avidemux luego de usar mp4v2 muxer (intenté tambien con mkv muxer y sale el mismo mensaje):



...Y aqui la primera hoja de la configuracion del codec:

« Last Edit: May 20, 2016, 06:00:38 PM by gino2812 »

gino2812

  • Newbie
  • *
  • Posts: 33
Re: Dos problemas con avidemux
« Reply #5 on: May 20, 2016, 05:47:39 PM »
PROBLEMA 02:
En otro video (mp4 x264 8bits) intenté pegar un logo png de borde irregular.
El avidemux no lo reconoce y en la previsualizacion sale la posicion como lluvia de colores, en casi toda la columna del video.
Obvio el logo no es reconocible.
Intenté convertirlo en gif y bmp, pero igual no los aceptó.
solo lo acepta en jpg, pero hace el borde dentro de un cuadrado y lo rellena de color blanco.

png de entrada está roto.
png input is broken.

jpg no tiene fondo alfa (invisible)
jpg does not have alpha background (invisible)

¿Eso quiere decir que la opcion de logo solo sirve para jpg?
¿alguna chance de solucionarlo?

Jan Gruuthuse

  • Hero Member
  • *****
  • Posts: 4919
Re: Dos problemas con avidemux
« Reply #6 on: May 20, 2016, 06:03:21 PM »
¿Eso quiere decir que la opcion de logo solo sirve para jpg?
Sí. (Yes.)

Quote
¿alguna chance de solucionarlo?
Del desarrollador reescritura de ffmpeg 3.0.2, no esperes png solución pronto.
The developer(s) rewriting for ffmpeg 3.0.2, don't png expect solution soon.
« Last Edit: May 20, 2016, 06:19:50 PM by Jan Gruuthuse »

Jan Gruuthuse

  • Hero Member
  • *****
  • Posts: 4919
Re: Dos problemas con avidemux
« Reply #7 on: May 20, 2016, 06:18:47 PM »
tasa de bits (bitrate) 2745 Kbps o ver imagen adjunta.

Prueba con 1 minuto, seleccionada de vídeo: Quality: 20, 21, 22, 23 o 24
Try with 1 minute selected video. Increase Quality by one: 20, 21, 22, 23 or 24
20 = pequeño archivo (small file)
21 = aumentar el tamaño del archivo, la calidad baja (increase file size, quality goes down)
22 = archivo más grande, menos calidad (bigger file, less quality)
22 = ...

Compruebe vídeo guardado y ver lo que funciona para usted. (Check saved video and see what works for you.)
« Last Edit: May 20, 2016, 06:21:40 PM by Jan Gruuthuse »

gino2812

  • Newbie
  • *
  • Posts: 33
Re: Dos problemas con avidemux
« Reply #8 on: May 20, 2016, 07:46:46 PM »
tasa de bits (bitrate) 2745 Kbps o ver imagen adjunta.

Prueba con 1 minuto, seleccionada de vídeo: Quality: 20, 21, 22, 23 o 24
Try with 1 minute selected video. Increase Quality by one: 20, 21, 22, 23 or 24
20 = pequeño archivo (small file)
21 = aumentar el tamaño del archivo, la calidad baja (increase file size, quality goes down)
22 = archivo más grande, menos calidad (bigger file, less quality)
22 = ...

Compruebe vídeo guardado y ver lo que funciona para usted. (Check saved video and see what works for you.)

No funcionó.
Intenté con mp4 & mp4v2 muxer... ambos arrojaron errores diferentes.




gino2812

  • Newbie
  • *
  • Posts: 33
Re: Dos problemas con avidemux
« Reply #9 on: May 20, 2016, 07:50:54 PM »
¿Eso quiere decir que la opcion de logo solo sirve para jpg?
Sí. (Yes.)

Quote
¿alguna chance de solucionarlo?
Del desarrollador reescritura de ffmpeg 3.0.2, no esperes png solución pronto.
The developer(s) rewriting for ffmpeg 3.0.2, don't png expect solution soon.

Oh Dios...

Jan Gruuthuse

  • Hero Member
  • *****
  • Posts: 4919
Re: Dos problemas con avidemux
« Reply #10 on: May 21, 2016, 03:46:17 PM »
No entiendo lo que estás haciendo?
I don't understand what you are doing?

Si su fuente de vídeo es impecable esto debería funcionar
If your source video is flawless this should work.

YouTube: re-encoded: AVC MPEG-4 re-encoding

gino2812

  • Newbie
  • *
  • Posts: 33
Re: Dos problemas con avidemux
« Reply #11 on: May 21, 2016, 05:48:33 PM »
No entiendo lo que estás haciendo?
I don't understand what you are doing?

Si su fuente de vídeo es impecable esto debería funcionar
If your source video is flawless this should work.

YouTube: re-encoded: AVC MPEG-4 re-encoding

Here is the link of the video I'm trying to convert: https://mega.nz/#F!s5AmxC6L!Ly4BEXPPyaZveQ4D-4neJA
Is an anime video.
The mediainfo text I sent previously is from it.

I tried some other 10bit anime video before on avidemux and there is always some problems with them. Is very unlikely avidemux works without crashing or sending an error message.
X265 videos also give troubles.

Please, give the link a try and see it by yourself.
« Last Edit: May 21, 2016, 07:39:39 PM by gino2812 »

Jan Gruuthuse

  • Hero Member
  • *****
  • Posts: 4919
Re: Dos problemas con avidemux
« Reply #12 on: May 21, 2016, 07:54:31 PM »
Developer(s) might need to look at this.
Quote
Unique ID                                : 206990713733286084339194289214492993995 (0x9BB8F61CED7FFB2CB0BC06ACF97769CB)
Complete name                            : [UWF] Shingeki no Bahamut Genesis - 01 (BD 720p) [9B19925E].mkv
Format                                   : Matroska
Format version                           : Version 4 / Version 2
File size                                : 485 MiB
Duration                                 : 23mn 41s
Overall bit rate                         : 2 861 Kbps
Movie name                               : [UWF] Shingeki no Bahamut Genesis - 01 - Encuentro en Wytearp
Encoded date                             : UTC 2016-04-01 08:56:40
Writing application                      : mkvmerge v9.0.1 ('Obstacles') 64bit
Writing library                          : libebml v1.3.3 + libmatroska v1.4.4
Attachments                              : Ace.ttf / andlso_8.ttf / angelina_0.TTF / GenBasBI_1D.ttf / GenBasB_1E.ttf / KozMinPro-Bold.otf / tulisan_tanganku.ttf

Video
ID                                       : 1
Format                                   : AVC
Format/Info                              : Advanced Video Codec
Format profile                           : High 4:4:4 Predictive@L5
Format settings, CABAC                   : Yes
Format settings, ReFrames                : 16 frames
Codec ID                                 : V_MPEG4/ISO/AVC
Duration                                 : 23mn 41s
Bit rate                                 : 1 862 Kbps
Width                                    : 1 280 pixels
Height                                   : 720 pixels
Display aspect ratio                     : 16:9
Frame rate mode                          : Constant
Frame rate                               : 23.976 (24000/1001) fps
Color space                              : YUV
Chroma subsampling                       : 4:4:4
Bit depth                                : 10 bits
Scan type                                : Progressive
Bits/(Pixel*Frame)                       : 0.084
Stream size                              : 315 MiB (65%)
Writing library                          : x264 core 142 r2431+42 c69a006 tMod [10-bit@all X86_64]
Encoding settings                        : cabac=1 / ref=16 / deblock=1:1:1 / analyse=0x3:0x133 / me=umh / subme=10 / psy=1 / fade_compensate=0.00 / psy_rd=0.40:0.00 / mixed_ref=1 / me_range=24 / chroma_me=1 / trellis=2 / 8x8dct=1 / cqm=0 / deadzone=21,11 / fast_pskip=1 / chroma_qp_offset=4 / threads=6 / lookahead_threads=1 / sliced_threads=0 / nr=0 / decimate=1 / interlaced=0 / bluray_compat=0 / constrained_intra=0 / fgo=0 / bframes=10 / b_pyramid=2 / b_adapt=2 / b_bias=0 / direct=3 / weightb=1 / open_gop=0 / weightp=2 / keyint=250 / keyint_min=23 / scenecut=40 / intra_refresh=0 / rc_lookahead=60 / rc=crf / mbtree=1 / crf=16.5000 / qcomp=0.60 / qpmin=0:0:0 / qpmax=81:81:81 / qpstep=4 / ip_ratio=1.40 / aq=3:0.70 / aq-sensitivity=10.00 / aq-factor=1.00:1.00:1.00 / aq2=0 / aq3=0
Language                                 : Japanese
Default                                  : Yes
Forced                                   : No

either has issues with
- Attachments TrueType fonts
- Color space                              : YUV Chroma subsampling                       : 4:4:4

These are already processed by you?
Code: [Select]
Text
ID                                       : 3
Format                                   : ASS
Codec ID                                 : S_TEXT/ASS
Codec ID/Info                            : Advanced Sub Station Alpha
Duration                                 : 23mn 34s
Bit rate                                 : 150 bps
Count of elements                        : 308
Compression mode                         : Lossless
Stream size                              : 25.9 KiB (0%)
Language                                 : Spanish
Default                                  : Yes
Forced                                   : No

Menu
00:00:00.000                             : es:Prólogo
00:02:16.610                             : es:Trama
00:21:55.000                             : es:Créditos
00:23:25.000                             : es:Epílogo


gino2812

  • Newbie
  • *
  • Posts: 33
Re: Dos problemas con avidemux
« Reply #13 on: May 22, 2016, 04:32:14 AM »
Developer(s) might need to look at this.
Quote
Unique ID                                : 206990713733286084339194289214492993995 (0x9BB8F61CED7FFB2CB0BC06ACF97769CB)
Complete name                            : [UWF] Shingeki no Bahamut Genesis - 01 (BD 720p) [9B19925E].mkv
Format                                   : Matroska
Format version                           : Version 4 / Version 2
File size                                : 485 MiB
Duration                                 : 23mn 41s
Overall bit rate                         : 2 861 Kbps
Movie name                               : [UWF] Shingeki no Bahamut Genesis - 01 - Encuentro en Wytearp
Encoded date                             : UTC 2016-04-01 08:56:40
Writing application                      : mkvmerge v9.0.1 ('Obstacles') 64bit
Writing library                          : libebml v1.3.3 + libmatroska v1.4.4
Attachments                              : Ace.ttf / andlso_8.ttf / angelina_0.TTF / GenBasBI_1D.ttf / GenBasB_1E.ttf / KozMinPro-Bold.otf / tulisan_tanganku.ttf

Video
ID                                       : 1
Format                                   : AVC
Format/Info                              : Advanced Video Codec
Format profile                           : High 4:4:4 Predictive@L5
Format settings, CABAC                   : Yes
Format settings, ReFrames                : 16 frames
Codec ID                                 : V_MPEG4/ISO/AVC
Duration                                 : 23mn 41s
Bit rate                                 : 1 862 Kbps
Width                                    : 1 280 pixels
Height                                   : 720 pixels
Display aspect ratio                     : 16:9
Frame rate mode                          : Constant
Frame rate                               : 23.976 (24000/1001) fps
Color space                              : YUV
Chroma subsampling                       : 4:4:4
Bit depth                                : 10 bits
Scan type                                : Progressive
Bits/(Pixel*Frame)                       : 0.084
Stream size                              : 315 MiB (65%)
Writing library                          : x264 core 142 r2431+42 c69a006 tMod [10-bit@all X86_64]
Encoding settings                        : cabac=1 / ref=16 / deblock=1:1:1 / analyse=0x3:0x133 / me=umh / subme=10 / psy=1 / fade_compensate=0.00 / psy_rd=0.40:0.00 / mixed_ref=1 / me_range=24 / chroma_me=1 / trellis=2 / 8x8dct=1 / cqm=0 / deadzone=21,11 / fast_pskip=1 / chroma_qp_offset=4 / threads=6 / lookahead_threads=1 / sliced_threads=0 / nr=0 / decimate=1 / interlaced=0 / bluray_compat=0 / constrained_intra=0 / fgo=0 / bframes=10 / b_pyramid=2 / b_adapt=2 / b_bias=0 / direct=3 / weightb=1 / open_gop=0 / weightp=2 / keyint=250 / keyint_min=23 / scenecut=40 / intra_refresh=0 / rc_lookahead=60 / rc=crf / mbtree=1 / crf=16.5000 / qcomp=0.60 / qpmin=0:0:0 / qpmax=81:81:81 / qpstep=4 / ip_ratio=1.40 / aq=3:0.70 / aq-sensitivity=10.00 / aq-factor=1.00:1.00:1.00 / aq2=0 / aq3=0
Language                                 : Japanese
Default                                  : Yes
Forced                                   : No

either has issues with
- Attachments TrueType fonts
- Color space                              : YUV Chroma subsampling                       : 4:4:4

These are already processed by you?
Code: [Select]
Text
ID                                       : 3
Format                                   : ASS
Codec ID                                 : S_TEXT/ASS
Codec ID/Info                            : Advanced Sub Station Alpha
Duration                                 : 23mn 34s
Bit rate                                 : 150 bps
Count of elements                        : 308
Compression mode                         : Lossless
Stream size                              : 25.9 KiB (0%)
Language                                 : Spanish
Default                                  : Yes
Forced                                   : No

Menu
00:00:00.000                             : es:Prólogo
00:02:16.610                             : es:Trama
00:21:55.000                             : es:Créditos
00:23:25.000                             : es:Epílogo

Yes, I'm converting this 10 bit, mkv, soft sub video to -> mp4 8bit, hardsub video (to watch on my led tv).

Are you telling me the problem is the subtitle (ass)?

And about the chroma... here is what I'm using:


« Last Edit: May 22, 2016, 04:47:10 AM by gino2812 »

Jan Gruuthuse

  • Hero Member
  • *****
  • Posts: 4919
Re: Dos problemas con avidemux
« Reply #14 on: May 22, 2016, 04:59:40 AM »
I'm not able to open these 10-bit mkv on avidemux. Sorry this is beyond my user experience.

Developers may have a look at this and perhaps provide you with a solution, time permitting.