Author Topic: Problema con videos bajados de Youtube  (Read 1081 times)

minegroasprilla

  • Newbie
  • *
  • Posts: 14
Problema con videos bajados de Youtube
« on: May 14, 2017, 12:58:31 PM »
Hola.
Suelo usar Internet Download Manager para descargar directamente videos de Youtube (yo uso Firefox).
Varios de estos videos están en MKV, sin embargo, muchos de ellos no se pueden abrir con AVIDEMUX.
Sale este error: "Intento de apertura de ........... fallido!".

Por ejemplo este video (MKV-480p): https://www.youtube.com/watch?v=pI03QOFXKpM



Podrían solucionar este problema y hacer que este tipo de videos se puedan editar en Avidemux?. Gracias.
« Last Edit: May 14, 2017, 01:05:02 PM by minegroasprilla »

Jan Gruuthuse

  • Hero Member
  • *****
  • Posts: 5428
Re: Problema con videos bajados de Youtube
« Reply #1 on: May 14, 2017, 02:52:39 PM »
¿Qué versión de avidemux está usando? http://www.avidemux.org/nightly/

Estoy en Ubuntu 16.04.2 LTS de 64 bits:
Me FlashGot por separado
- audio (webm) <= No tiene extensión, agregue .opus
- video (webm)

mkvtoolnix gui: Agregar ambos y remux. (.webm + .opus)

Edición de la muestra Avidemux 2.7.0 (1705xx_23bc4ff): Mpeg4 AVC (x264)(AAC FDK)_Perú_vs_Chile.mkv
1 archivo, 9.3 MB en total · Se borrará el 21 de mayo de 2017
Enlace de descarga: https://we.tl/4tZRRFWznF

____________
I flashgot separately
- audio (webm) <= has no extention, add .opus
- video (webm)

mkvtoolnix gui add both and remux.




« Last Edit: May 14, 2017, 03:00:20 PM by Jan Gruuthuse »

minegroasprilla

  • Newbie
  • *
  • Posts: 14
Re: Problema con videos bajados de Youtube
« Reply #2 on: May 14, 2017, 03:12:33 PM »
Estoy usando la última versión: 2.7.0_r170514 - x64

El problema lo tengo con los archivos MKV (VP9) que se descargan usando IDM, y ese el formato original que utiliza dicho programa para algunos videos de Youtube (Con las otras extensiones no tengo problema).
« Last Edit: May 14, 2017, 03:17:54 PM by minegroasprilla »

Jan Gruuthuse

  • Hero Member
  • *****
  • Posts: 5428
Re: Problema con videos bajados de Youtube
« Reply #3 on: May 14, 2017, 03:22:14 PM »
Intentar remuxing descargado mkv mkvtoolnix gui: https://mkvtoolnix.download/

Este fue el mkv construido:
Code: [Select]
Format                                   : Matroska
Format version                           : Version 4 / Version 2
File size                                : 899 MiB
Duration                                 : 2h 30mn
Overall bit rate                         : 835 Kbps
Encoded date                             : UTC 2017-05-14 14:28:02
Writing application                      : mkvmerge v11.0.0 ('Alive') 64bit
Writing library                          : libebml v1.3.4 + libmatroska v1.4.5

Video
ID                                       : 1
Format                                   : VP9
Codec ID                                 : V_VP9
Duration                                 : 2h 30mn
Bit rate                                 : 704 Kbps
Width                                    : 640 pixels
Height                                   : 480 pixels
Display aspect ratio                     : 4:3
Frame rate mode                          : Variable
Frame rate                               : 29.970 fps
Bits/(Pixel*Frame)                       : 0.077
Stream size                              : 759 MiB (84%)
Language                                 : English
Default                                  : Yes
Forced                                   : No

Audio
ID                                       : 2
Format                                   : Opus
Codec ID                                 : A_OPUS
Duration                                 : 2h 30mn
Bit rate                                 : 128 Kbps
Channel(s)                               : 2 channels
Channel positions                        : Front: L R
Sampling rate                            : 48.0 KHz
Frame rate                               : 50.000 fps (960 spf)
Compression mode                         : Lossy
Stream size                              : 138 MiB (15%)
Language                                 : English
Default                                  : Yes
Forced                                   : No
« Last Edit: May 14, 2017, 03:28:43 PM by Jan Gruuthuse »

minegroasprilla

  • Newbie
  • *
  • Posts: 14
Re: Problema con videos bajados de Youtube
« Reply #4 on: May 14, 2017, 03:45:25 PM »
Volví hacer Remuxing.
Avidemux lo coge, pero el video resultante de la edición sale mal.
Yo creo que Avidemux debe crear soporte para archivos VP9 en MKV porque hasta ahora no los soporta correctamente.

Jan Gruuthuse

  • Hero Member
  • *****
  • Posts: 5428
Re: Problema con videos bajados de Youtube
« Reply #5 on: May 14, 2017, 03:54:30 PM »
Avidemux lee vp9 y opus del contenedor mkv.
El vídeo de muestra Mpeg4 AVC (x264) (AAC FDK) _Perú_vs_Chile.mkv fue creado desde mkv con vp9 y opus.
¿Puedes abrir este ejemplo mkv (vp9+opus) en avidemux 2.7.0?

Se borrará el 21 de mayo de 2017
1 archivo, 8.34 MB en total · Enlace de descarga: SampleVp9+Opus.mkv
https://we.tl/Tnc29IZ82n

minegroasprilla

  • Newbie
  • *
  • Posts: 14
Re: Problema con videos bajados de Youtube
« Reply #6 on: May 14, 2017, 04:06:31 PM »
Ese archivo de prueba lo abre el Avidemux, pero cuando lo edito, el video resultante sale malo, así:

Jan Gruuthuse

  • Hero Member
  • *****
  • Posts: 5428
Re: Problema con videos bajados de Youtube
« Reply #7 on: May 14, 2017, 04:15:38 PM »
Así es como se abre el video en avidemux 2.7 en ubuntu 16.04.2.

¿Estás en las ventanas? Y qué versión?

Mi video:
« Last Edit: May 14, 2017, 04:19:05 PM by Jan Gruuthuse »

minegroasprilla

  • Newbie
  • *
  • Posts: 14
Re: Problema con videos bajados de Youtube
« Reply #8 on: May 14, 2017, 04:19:54 PM »
Tengo Windows 10 x64.

Ese video de prueba se abre, pero el video resultante de alguna edición queda mal.

Pero yo hablo de los videos bajados con IDM que ni siquiera los abre el Avidemux.

Jan Gruuthuse

  • Hero Member
  • *****
  • Posts: 5428
Re: Problema con videos bajados de Youtube
« Reply #9 on: May 14, 2017, 04:31:18 PM »
IDM probablemente corrompe el video.
Probablemente usted puede conseguirlo del encargado de los complementos de Firefox.
Estoy usando Firefox con FlashGot.

FlashGot es un software libre https://flashgot.net/

Haga clic con el botón derecho del ratón y seleccione
- video webm
- audio del webm
Si el tamaño de los archivos es pequeño para actualizar la página web de vídeo

tu video:
« Last Edit: May 14, 2017, 04:33:51 PM by Jan Gruuthuse »

minegroasprilla

  • Newbie
  • *
  • Posts: 14
Re: Problema con videos bajados de Youtube
« Reply #10 on: May 14, 2017, 09:31:18 PM »
Me gustaría que probaras editar ese video en Webm bajado de flashgot.
Yo probé editandolo y el video resultante sale malo. Lo probé editándolo a MP4.

Jan Gruuthuse

  • Hero Member
  • *****
  • Posts: 5428
Re: Problema con videos bajados de Youtube
« Reply #11 on: May 15, 2017, 05:05:09 AM »
Me gustaría que probaras editar ese video en Webm bajado de flashgot.
Yo probé editandolo y el video resultante sale malo. Lo probé editándolo a MP4.

Quote
I would like you to try editing that video on Webm downloaded from flashgot.
I tried editing it and the resulting video goes bad. I tried it by editing it to MP4.

No estoy seguro si google lo tradujo correctamente
I'm not certain if google did tranlate this correctly

¿Los vídeos ahora se abren correctamente en avidemux 2.7.0?
Do the videos now open correctly in avidemux 2.7.0?

Si los videos se abren correctamente: Seleccione los puntos de edición sólo con la flecha del teclado hacia arriba o hacia abajo!
If the videos open correctly: Select editing points only with up or down keyboard arrow!

No con la flecha izquierda o derecha del teclado.
Not with left or right keyboard arrow.


Comencé un hilo en el foro inglés
I started a thread in English Forum
Avidemux » Main version 2.6 » VP9 - Opus, Windows 10 64-bit, Avidemux 2.7.0_r170514 - x64