Author Topic: Avidemux no reconoce Codec y no emite sonido  (Read 790 times)

Ragiel

  • Newbie
  • *
  • Posts: 2
Avidemux no reconoce Codec y no emite sonido
« on: December 18, 2017, 10:28:34 PM »
Hola

Tengo varios archivo wmv, cuando quiero editar alguno de ellos avidemux no reproduce sonido, los reproductores: Reproductor Windows Media y VLC media player si emiten el sonido correspondiente.

Por ende al migrar el archivo a MP4 con avidemux el archivo resultante no tiene sonido.

La consulta es si me falta instalar algun codec para que Avidemux reconozca el sonido del archivo o de que manera puedo hacer para que Avidemux pueda reconocer el sonido y pueda de esta forma editarlo.

Los datos del sistema que utilizo son los siguientes:

Windows 7 ultimate
Procesador Pentium Dual Corel
Sistema 32 Bits

Avidemux 2.7.0

El archivo tiene codec de audio wmav1


Gracias anticipadamente.

Ragiel.




Jan Gruuthuse

  • Hero Member
  • *****
  • Posts: 6049
Re: Avidemux no reconoce Codec y no emite sonido
« Reply #1 on: December 19, 2017, 09:11:26 AM »
¿Puedes subir una pequeña muestra de video similar con este problema?
Can you upload a small sample of similar video with this issue?

100 MB de tamaño, más o menos?
100 MB sizewise, more or less?

Gracias
   
Información: Upload Hochladen Télécharger Subir

Ragiel

  • Newbie
  • *
  • Posts: 2
Re: Avidemux no reconoce Codec y no emite sonido
« Reply #2 on: December 21, 2017, 11:50:48 AM »
Paso el video completo y la fuente original:
http://depositfiles.com/files/4cfykcg0r

No puedo enviar menos, al exportarlo o cortarlo el video resultante no tiene sonido.

Gracias

Jan Gruuthuse

  • Hero Member
  • *****
  • Posts: 6049
Re: Avidemux no reconoce Codec y no emite sonido
« Reply #3 on: December 21, 2017, 01:29:58 PM »
Tiempo promedio de descarga en modo normal: 346 minutos Tamaño de archivo: 810.45 MB :(
Average download time in regular mode: 346 minutes File size: 810.45 MB  :(
« Last Edit: December 21, 2017, 01:31:32 PM by Jan Gruuthuse »

Jan Gruuthuse

  • Hero Member
  • *****
  • Posts: 6049
wmav1 Actualmente no compatible
« Reply #4 on: December 21, 2017, 03:06:21 PM »
wmav1 Actualmente no compatible
wmav1 Currently not supported

Avidemux 2.7.0:
Code: [Select]
=====================================================
Video
=====================================================
Codec 4CC: WMV2
Image Size: 1280 x 720
Aspect Ratio: 1:1 (1:1)
Frame Rate: 24.992 fps
Total Duration: 00:32:05.860

=====================================================
Extra Video Properties
=====================================================
ExtraDataSize: 04
Extra data: CF FF B4 80

=====================================================
Audio
=====================================================
Codec: Unknown codec
Channels: Stereo
Bitrate: 16000 Bps / 128 kbps
Frequency: 48000 Hz
Total Duration: 00:00:00.000

MediaInfo:
Code: [Select]
General
Complete name                            : /home/jan/Downloads/123.wmv
Format                                   : Windows Media
File size                                : 810 MiB
Duration                                 : 32mn 2s
Overall bit rate                         : 3 536 Kbps
Maximum Overall bit rate                 : 2 628 Kbps
Encoded date                             : UTC 1970-01-01 00:00:00.000

Video
ID                                       : 1
Format                                   : WMV2
Codec ID                                 : WMV2
Codec ID/Info                            : Windows Media Video 8
Description of the codec                 : wmv2
Duration                                 : 32mn 2s
Bit rate                                 : 3 259 Kbps
Width                                    : 1 280 pixels
Height                                   : 720 pixels
Display aspect ratio                     : 16:9
Frame rate                               : 25.000 fps
Bit depth                                : 8 bits
Bits/(Pixel*Frame)                       : 0.141
Stream size                              : 747 MiB (92%)

Audio
ID                                       : 2
Format                                   : WMA
Format version                           : Version 1
Codec ID                                 : 160
Codec ID/Info                            : Windows Media Audio
Description of the codec                 : wmav1
Duration                                 : 32mn 2s
Bit rate                                 : 128 Kbps
Channel(s)                               : 2 channels
Sampling rate                            : 48.0 KHz
Bit depth                                : 16 bits
Stream size                              : 29.3 MiB (4%)