Author Topic: Audio sync  (Read 362 times)

Blues

  • Jr. Member
  • **
  • Posts: 68
Audio sync
« on: February 07, 2018, 09:58:41 PM »
I have a file here where audio starts in sync with video and then gradually goes out of sync. I have vague memories of Avidemux having frame rate manual setting which could be used to sync the file during muxing. Now I can't find any options to correct sync while muxing. Is this function gone?

eumagga0x2a

  • Hero Member
  • *****
  • Posts: 2059
Re: Audio sync
« Reply #1 on: February 08, 2018, 07:51:38 AM »
"change FPS" video filter exists, but it would be hardly possible to correct audio going progressively out of sync. For more precise recommendation any hard info (MediaInfo output, admlog.txt etc.) regarding the file in question would be welcome.

Blues

  • Jr. Member
  • **
  • Posts: 68
Re: Audio sync
« Reply #2 on: February 08, 2018, 02:19:00 PM »
Here's the mediainfo, have to figure out how to get that admlog.
Code: [Select]
General
Unique ID                                : 262721156706520791359018314311592359394 (0xC5A6411800E3D7D028D24C076A60B5E2)
Complete name                            : Stolen_Kisses_1968.mkv
Format                                   : Matroska
Format version                           : Version 4 / Version 2
File size                                : 694 MiB
Duration                                 : 1 h 27 min
Overall bit rate mode                    : Variable
Overall bit rate                         : 1 115 kb/s
Encoded date                             : UTC 2016-11-02 05:26:59
Writing application                      : mkvmerge v9.5.0 ('Quiet Fire') 64bit
Writing library                          : libebml v1.3.4 + libmatroska v1.4.5

Video
ID                                       : 1
Format                                   : MPEG-4 Visual
Codec ID                                 : V_MS/VFW/FOURCC / DIV3
Codec ID/Hint                            : DivX 3 Low
Duration                                 : 1 h 26 min
Bit rate                                 : 1 036 kb/s
Width                                    : 576 pixels
Height                                   : 352 pixels
Display aspect ratio                     : 16:10
Frame rate mode                          : Constant
Frame rate                               : 25.000 FPS
Color space                              : YUV
Chroma subsampling                       : 4:2:0
Bit depth                                : 8 bits
Compression mode                         : Lossy
Bits/(Pixel*Frame)                       : 0.204
Stream size                              : 644 MiB (93%)
Default                                  : Yes
Forced                                   : No

Audio
ID                                       : 2
Format                                   : MPEG Audio
Format version                           : Version 1
Format profile                           : Layer 3
Codec ID                                 : A_MPEG/L3
Codec ID/Hint                            : MP3
Duration                                 : 1 h 27 min
Bit rate mode                            : Variable
Bit rate                                 : 77.4 kb/s
Channel(s)                               : 1 channel
Sampling rate                            : 48.0 kHz
Frame rate                               : 41.667 FPS (1152 SPF)
Compression mode                         : Lossy
Stream size                              : 48.2 MiB (7%)
Writing library                          : LAME3.89 (beta)
Language                                 : French
Default                                  : Yes
Forced                                   : No

eumagga0x2a

  • Hero Member
  • *****
  • Posts: 2059
Re: Audio sync
« Reply #3 on: February 09, 2018, 09:41:58 PM »
have to figure out how to get that admlog.

On Windows: "Help" --> "Advanced" in Avidemux.

Quote
Code: [Select]
File size                                : 694 MiB
Duration                                 : 1 h 27 min

Video
Duration                                 : 1 h 26 min

Audio
Duration                                 : 1 h 27 min


Does the differing duration of audio and video streams match the A/V desync with audio getting more and more behind?

Blues

  • Jr. Member
  • **
  • Posts: 68
Re: Audio sync
« Reply #4 on: February 13, 2018, 01:45:47 AM »
What windows, you mean Avidemux window? There is no such item under Help.  :-\