Author Topic: How to properly compress original camera footage?  (Read 2111 times)

DÅ‚ugosz

  • Newbie
  • *
  • Posts: 19
How to properly compress original camera footage?
« on: February 06, 2013, 07:59:14 AM »
I just found this tool (for Windows) and I'm very excited about it.  It's not dumbed down like other "convert" tools!

I've read through the x264 settings in the Wiki, and managed to do a better job than a canned dumb commercial tool and faster besides, for prepping some video for You-Tube.

Anyway, here is my question about encoding.  Once I learn the right technique, I'll write it up nicely for the wiki or at least the Tips forum.  My D-SLR shoots video too, and the format it outputs seems to be very dumb.  It is around 44Mbits/sec, and I'm thinking that every frame is a full frame:  No matter where I seek, Avidemux shows “Frame type: I-FRM (00)”, even if I use the dial control to the right of the scroll bar.  Are there tools to inspect the details of the encoding?

I think that for archiving the "original" footage I can compress it substantially by using all the proper features of the codec, without degrading it.  JPEG photo editing tools, for example, have a "same as original" quality setting that can be used instead of the number and it uses the same Q-matrix etc. as was read; other than real roundoffs this should not damage the data as it re-encodes the same way that was already quantized.

I'm wondering if there is something similar for the video codec.  Or at least some other tool to find the original details so I can match that with the settings.  My goal is to simply compress the file by making it less brain-dead but not suffer damage that would make it less desirable for subsequent editing.

—John


P.S.  Using MediaInfo, I learned the following about the camera's file:
Code: [Select]
General
Complete name                            : C:\⋯.MOV
Format                                   : MPEG-4
Format profile                           : QuickTime
Codec ID                                 : qt 
File size                                : 791 MiB
Duration                                 : 2mn 24s
Overall bit rate                         : 46.0 Mbps
Encoded date                             : UTC 2013-02-02 14:55:32
Tagged date                              : UTC 2013-02-02 14:55:32

Video
ID                                       : 1
Format                                   : AVC
Format/Info                              : Advanced Video Codec
Format profile                           : Baseline@L5.0
Format settings, CABAC                   : No
Format settings, ReFrames                : 1 frame
Format settings, GOP                     : M=1, N=15
Codec ID                                 : avc1
Codec ID/Info                            : Advanced Video Coding
Duration                                 : 2mn 24s
Bit rate                                 : 44.5 Mbps
Width                                    : 1 920 pixels
Height                                   : 1 080 pixels
Original height                          : 1 088 pixels
Display aspect ratio                     : 16:9
Original display aspect ratio            : 16:9
Frame rate mode                          : Constant
Frame rate                               : 29.970 fps
Color space                              : YUV
Chroma subsampling                       : 4:2:0
Bit depth                                : 8 bits
Scan type                                : Progressive
Bits/(Pixel*Frame)                       : 0.716
Stream size                              : 764 MiB (97%)
Language                                 : English
Encoded date                             : UTC 2013-02-02 14:55:32
Tagged date                              : UTC 2013-02-02 14:55:32
Color primaries                          : BT.709
Transfer characteristics                 : BT.709
Matrix coefficients                      : BT.601

Audio
ID                                       : 2
Format                                   : PCM
Format settings, Endianness              : Little
Format settings, Sign                    : Signed
Codec ID                                 : sowt
Duration                                 : 2mn 24s
Bit rate mode                            : Constant
Bit rate                                 : 1 536 Kbps
Channel(s)                               : 2 channels
Channel positions                        : Front: L R
Sampling rate                            : 48.0 KHz
Bit depth                                : 16 bits
Stream size                              : 26.4 MiB (3%)
Language                                 : English
Encoded date                             : UTC 2013-02-02 14:55:32
Tagged date                              : UTC 2013-02-02 14:55:32
« Last Edit: February 06, 2013, 08:28:14 AM by DÅ‚ugosz »