Author Topic: Avidemux fail to open edited mp4 file  (Read 2117 times)

tguo

  • Newbie
  • *
  • Posts: 1
Avidemux fail to open edited mp4 file
« on: August 14, 2016, 04:19:26 AM »
Hi All,

I have 2 files, one is kind of raw and the other is already edited by my friend (with some tools I do not know). When trying to open the edited mp4 file, Avidemux gives me a black preview and I cannot play it or anything. Screenshot is attached.

Any idea why? Media info for the failed video:

Format                                   : MPEG-4
Format profile                           : Base Media
Codec ID                                 : isom (isom/iso2/avc1/mp41)
File size                                : 273 MiB
Duration                                 : 42 min
Overall bit rate                         : 895 kb/s
Description                              : Coded by New Bilibili Transcoder v1.2
Writing application                      : Lavf57.0.100

Video
ID                                       : 1
Format                                   : AVC
Format/Info                              : Advanced Video Codec
Format profile                           : High@L3.1
Format settings, CABAC                   : Yes
Format settings, ReFrames                : 4 frames
Codec ID                                 : avc1
Codec ID/Info                            : Advanced Video Coding
Duration                                 : 42 min
Source duration                          : 6 min
Bit rate                                 : 828 kb/s
Width                                    : 1 280 pixels
Height                                   : 720 pixels
Display aspect ratio                     : 16:9
Frame rate mode                          : Constant
Frame rate                               : 25.000 FPS
Color space                              : YUV
Chroma subsampling                       : 4:2:0
Bit depth                                : 8 bits
Scan type                                : Progressive
Bits/(Pixel*Frame)                       : 0.036
Stream size                              : 253 MiB (92%)
Source stream size                       : 253 MiB (92%)
mdhd_Duration                            : 2559520

Audio
ID                                       : 2
Format                                   : AAC
Format/Info                              : Advanced Audio Codec
Format profile                           : HE-AAC / LC
Codec ID                                 : 40
Duration                                 : 42 min
Duration_LastFrame                       : -46 ms
Bit rate mode                            : Constant
Bit rate                                 : 62.8 kb/s
Channel(s)                               : 2 channels
Channel positions                        : Front: L R
Sampling rate                            : 44.1 kHz / 22.05 kHz
Frame rate                               : 21.533 FPS (1024 spf)
Compression mode                         : Lossy
Stream size                              : 19.2 MiB (7%)
Default                                  : Yes
Alternate group                          : 1
-----------------------------------------------------------------------------------------------------------------------------------------------
FYI anyone is interested, mediainfo for the one that I am able to load:

Format                                   : MPEG-4
Format profile                           : Base Media
Codec ID                                 : isom (isom/iso2/avc1/mp41)
File size                                : 963 MiB
Duration                                 : 1 h 44 min
Overall bit rate mode                    : Variable
Overall bit rate                         : 1 293 kb/s
Description                              : Coded by New Bilibili Transcoder v1.2
Writing application                      : Lavf57.0.100

Video
ID                                       : 1
Format                                   : AVC
Format/Info                              : Advanced Video Codec
Format profile                           : High@L4.1
Format settings, CABAC                   : Yes
Format settings, ReFrames                : 8 frames
Codec ID                                 : avc1
Codec ID/Info                            : Advanced Video Coding
Duration                                 : 1 h 44 min
Bit rate                                 : 1 228 kb/s
Width                                    : 1 080 pixels
Height                                   : 608 pixels
Display aspect ratio                     : 16:9
Frame rate mode                          : Variable
Frame rate                               : 24.000 FPS
Minimum frame rate                       : 23.585 FPS
Maximum frame rate                       : 24.000 FPS
Color space                              : YUV
Chroma subsampling                       : 4:2:0
Bit depth                                : 8 bits
Scan type                                : Progressive
Bits/(Pixel*Frame)                       : 0.078
Stream size                              : 913 MiB (95%)
Writing library                          : x264 core 146
Encoding settings                        : cabac=1 / ref=8 / deblock=1:-1:-1 / analyse=0x3:0x133 / me=umh / subme=10 / psy=1 / psy_rd=1.00:0.15 / mixed_ref=1 / me_range=16 / chroma_me=1 / trellis=2 / 8x8dct=1 / cqm=0 / deadzone=21,11 / fast_pskip=1 / chroma_qp_offset=-3 / threads=72 / lookahead_threads=4 / sliced_threads=0 / nr=0 / decimate=1 / interlaced=0 / bluray_compat=0 / constrained_intra=0 / bframes=4 / b_pyramid=2 / b_adapt=2 / b_bias=0 / direct=3 / weightb=1 / open_gop=0 / weightp=2 / keyint=240 / keyint_min=24 / scenecut=40 / intra_refresh=0 / rc_lookahead=240 / rc=abr / mbtree=1 / bitrate=1228 / ratetol=1.0 / qcomp=0.60 / qpmin=0 / qpmax=69 / qpstep=4 / vbv_maxrate=2457 / vbv_bufsize=4915 / nal_hrd=none / filler=0 / ip_ratio=1.40 / aq=2:1.00

Audio
ID                                       : 2
Format                                   : AAC
Format/Info                              : Advanced Audio Codec
Format profile                           : HE-AAC / LC
Codec ID                                 : 40
Duration                                 : 1 h 44 min
Bit rate mode                            : Variable
Bit rate                                 : 62.8 kb/s
Maximum bit rate                         : 69.3 kb/s
Channel(s)                               : 2 channels
Channel positions                        : Front: L R
Sampling rate                            : 44.1 kHz / 22.05 kHz
Frame rate                               : 21.533 FPS (1024 spf)
Compression mode                         : Lossy
Stream size                              : 46.7 MiB (5%)
Default                                  : Yes
Alternate group                          : 1

Jan Gruuthuse

  • Hero Member
  • *****
  • Posts: 6053
Re: Avidemux fail to open edited mp4 file
« Reply #1 on: August 14, 2016, 05:53:02 AM »
can't see directly any cause why one would open and to other not?
See if you can rescue the video and re-mux the video with mkvtoolnix gui
Wondering about this:
Quote
Duration                                 : 42 min
Source duration                          : 6 min

fish

  • Full Member
  • ***
  • Posts: 130
Re: Avidemux fail to open edited mp4 file
« Reply #2 on: August 19, 2016, 10:35:10 AM »
Is there an obvious reason why your problem video has a 'Source duration' that is much shorter than the duration indicated in the overall, the video and the audio listings?