Author Topic: Quicktime Mov from GH4, Output Sound Issue  (Read 1205 times)

xodz

  • Newbie
  • *
  • Posts: 7
Quicktime Mov from GH4, Output Sound Issue
« on: February 12, 2017, 03:32:55 PM »
Excuse me for not searching for relative replies. I came up with nothing on google hence i'll be sure to use some keywords. I have been using Avidemux for some years now.

So what happens is - I have a Panasonic GH4 shooting cinema 4k 24fps. it saves as a "MOV" file.

.mov file details per MediaInfo 0.7.92.1

Code: [Select]
Format                                   : MPEG-4
Format profile                           : QuickTime
Codec ID                                 : qt   2011.07 (qt  /pana)
File size                                : 1.31 GiB
Duration                                 : 1 min 59 s
Overall bit rate mode                    : Variable
Overall bit rate                         : 94.4 Mb/s
Encoded date                             : UTC 2016-11-06 15:54:14
Tagged date                              : UTC 2016-11-06 15:54:14
PANA (skipping)
ID                                       : 1
Format                                   : AVC
Format/Info                              : Advanced Video Codec
Format profile                           : High@L5.1
Format settings, CABAC                   : Yes
Format settings, ReFrames                : 2 frames
Codec ID                                 : avc1
Codec ID/Info                            : Advanced Video Coding
Duration                                 : 1 min 59 s
Bit rate mode                            : Variable
Bit rate                                 : 92.8 Mb/s
Maximum bit rate                         : 106 Mb/s
Width                                    : 4 096 pixels
Height                                   : 2 160 pixels
Display aspect ratio                     : 1.896
Frame rate mode                          : Constant
Frame rate                               : 24.000 FPS
Color space                              : YUV
Chroma subsampling                       : 4:2:0
Bit depth                                : 8 bits
Scan type                                : Progressive
Bits/(Pixel*Frame)                       : 0.437
Stream size                              : 1.29 GiB (98%)
Encoded date                             : UTC 2016-11-06 15:54:14
Tagged date                              : UTC 2016-11-06 15:54:14
Color range                              : Full
Color primaries                          : BT.709
Transfer characteristics                 : BT.709
Matrix coefficients                      : BT.709

Audio
ID                                       : 2
Format                                   : PCM
Format settings, Endianness              : Big
Format settings, Sign                    : Signed
Codec ID                                 : twos
Duration                                 : 1 min 59 s
Bit rate mode                            : Constant
Bit rate                                 : 1 536 kb/s
Channel(s)                               : 2 channels
Channel positions                        : Front: L R
Sampling rate                            : 48.0 kHz
Bit depth                                : 16 bits
Stream size                              : 21.9 MiB (2%)
Encoded date                             : UTC 2016-11-06 15:54:14
Tagged date                              : UTC 2016-11-06 15:54:14

Other
ID                                       : 3
Type                                     : Time code
Format                                   : QuickTime TC
Duration                                 : 1 min 59 s
Time code of first frame                 : 06:10:21:19
Time code, striped                       : Yes
Encoded date                             : UTC 2016-11-06 15:54:14
Tagged date                              : UTC 2016-11-06 15:54:14
Bit rate mode                            : CBR


I open it into Avidemux, take a clip using A/B on i-frms

i have tried the following options:

Video Ouput:
Mpeg4 AVC (x264)
Copy
Nvidia H264

Audio Output:
Tried pretty much every one

Output Format:
MP4
MP4v2
AVI
MKV

Please shed some light as to why my cut and saved video has audio which has very rapid chops ( choppy sound)

Thanks so much to anyone who assists

eumagga0x2a

  • Moderator
  • Hero Member
  • *****
  • Posts: 3396
Re: Quicktime Mov from GH4, Output Sound Issue
« Reply #1 on: February 12, 2017, 04:06:06 PM »
Please try the latest nightly. This issue might have been fixed (likely on Jan 12) since the last release.

xodz

  • Newbie
  • *
  • Posts: 7
Re: Quicktime Mov from GH4, Output Sound Issue
« Reply #2 on: February 12, 2017, 04:48:07 PM »
Thanks for prompt response.

Now my .mov quicktime media from GH4 (details on previous post) exports with these settings:

Video Output:
copy

Audio Output:
AAC

Output Format:
MP4 Muxer

The result no longer has any issues since using that Latest version of Avidemux.

Thanks so much for your solution.