October 26, 2020, 04:43:01 am

News:

--


Encode video for mobile(mp4/xvid)

Started by non7top, September 18, 2012, 10:44:51 am

Previous topic - Next topic

non7top

Hello, I'm trying to encode a video suitable for my SonyEricsson c901 mobile phone. I have a sample video, which is perfectly playable (encoded with another tool), however I can't make an option combination in avidemux so that the output would match that sample. I see that there are theree differencies there - mp4 profile, constant bitrate and constant frame rate, but can't figure out how to set them in avidemux.
Any help would be appreciated.

Sample

General
Complete name                  : C:\Users\non7top\Videos\PSY - GANGNAM STYLE M%V-9bZkp7q19f0.mp4
Format                         : MPEG-4
Format profile                 : Base Media / Version 1
Codec ID                       : mp41
File size                      : 23.4 MiB
Duration                       : 4mn 12s
Overall bit rate               : 779 Kbps
Encoded date                   : UTC 2012-09-17 01:12:09
Tagged date                    : UTC 2012-09-17 01:12:09
Writing library                : AVS

Video
ID                             : 1
Format                         : MPEG-4 Visual
Format profile                 : Simple@L0
Format settings, BVOP          : No
Format settings, QPel          : No
Format settings, GMC           : No warppoints
Format settings, Matrix        : Default (H.263)
Codec ID                       : 20
Duration                       : 4mn 12s
Bit rate mode                  : Constant
Bit rate                       : 642 Kbps
Nominal bit rate               : 64.0 Kbps
Width                          : 320 pixels
Height                         : 240 pixels
Display aspect ratio           : 4:3
Frame rate mode                : Constant
Frame rate                     : 30.000 fps
Color space                    : YUV
Chroma subsampling             : 4:2:0
Bit depth                      : 8 bits
Scan type                      : Progressive
Compression mode               : Lossy
Bits/(Pixel*Frame)             : 0.279
Stream size                    : 19.3 MiB (82%)
Writing library                : XviD 62
Language                       : English
Encoded date                   : UTC 2012-09-17 01:12:09
Tagged date                    : UTC 2012-09-17 01:12:09

Audio
ID                             : 2
Format                         : AAC
Format/Info                    : Advanced Audio Codec
Format profile                 : LC
Codec ID                       : 40
Duration                       : 4mn 12s
Bit rate mode                  : Constant
Bit rate                       : 132 Kbps
Nominal bit rate               : 96.0 Kbps
Channel(s)                     : 2 channels
Channel positions              : Front: L R
Sampling rate                  : 48.0 KHz
Compression mode               : Lossy
Stream size                    : 4.00 MiB (17%)
Language                       : English
Encoded date                   : UTC 2012-09-17 01:12:09
Tagged date                    : UTC 2012-09-17 01:12:09



General
Complete name                  : Z:\tmp\ttt.mp4.mp4
Format                         : MPEG-4
Format profile                 : Base Media
Codec ID                       : isom
File size                      : 1.20 MiB
Duration                       : 12s 377ms
Overall bit rate               : 813 Kbps
Writing application            : Lavf54.6.100

Video
ID                             : 1
Format                         : MPEG-4 Visual
Format profile                 : Simple@L0
Format settings, BVOP          : No
Format settings, QPel          : No
Format settings, GMC           : No warppoints
Format settings, Matrix        : Default (H.263)
Codec ID                       : 20
Duration                       : 12s 367ms
Bit rate mode                  : Variable
Bit rate                       : 612 Kbps
Maximum bit rate               : 9 500 Kbps
Width                          : 320 pixels
Height                         : 180 pixels
Display aspect ratio           : 16:9
Frame rate mode                : Variable
Frame rate                     : 30.000 fps
Minimum frame rate             : 29.970 fps
Maximum frame rate             : 30.030 fps
Color space                    : YUV
Chroma subsampling             : 4:2:0
Bit depth                      : 8 bits
Scan type                      : Progressive
Compression mode               : Lossy
Bits/(Pixel*Frame)             : 0.354
Stream size                    : 924 KiB (75%)
Writing library                : XviD 64

Audio
ID                             : 2
Format                         : AAC
Format/Info                    : Advanced Audio Codec
Format profile                 : LC
Codec ID                       : 40
Duration                       : 12s 377ms
Bit rate mode                  : Constant
Bit rate                       : 192 Kbps
Channel(s)                     : 2 channels
Channel positions              : Front: L R
Sampling rate                  : 44.1 KHz
Compression mode               : Lossy
Stream size                    : 290 KiB (24%)

I12learn

Have try to load the file into avidemux and play it (the MP4 one)
What avidemux says about properties?