Author Topic: Can't use navigation slider 2.6.0_win64  (Read 5433 times)

unknownsoldierx

  • Newbie
  • *
  • Posts: 12
Can't use navigation slider 2.6.0_win64
« on: October 11, 2012, 01:06:54 PM »
When I load a wmv or mp4 video the navigation slider is unusable.  When I drag the slider it keeps popping back towards the beginning.  Yet, when I press the right arrow key on the keyboard, the slider pops back to where I was trying to slide it to.

AVI files work fine.

styrol

  • Hero Member
  • *****
  • Posts: 533
Re: Can't use navigation slider 2.6.0_win64
« Reply #1 on: October 11, 2012, 02:19:13 PM »
Please share a sample of a MP4 file on Rapidshare or a similar service.

unknownsoldierx

  • Newbie
  • *
  • Posts: 12
Re: Can't use navigation slider 2.6.0_win64
« Reply #2 on: October 11, 2012, 03:02:09 PM »
I'm not allowed to upload any of the videos I have.  Although, I did find an mp4 that works fine.  Maybe these stats will help?

This is one of the videos that causes the issue:

Code: [Select]
Format                                   : MPEG-4
Format profile                           : Base Media
Codec ID                                 : isom
File size                                : 1.07 GiB
Duration                                 : 49mn 37s
Overall bit rate mode                    : Variable
Overall bit rate                         : 3 100 Kbps
Writing application                      : Lavf52.64.2

Video
ID                                       : 1
Format                                   : AVC
Format/Info                              : Advanced Video Codec
Format profile                           : High@L3.1
Format settings, CABAC                   : Yes
Format settings, ReFrames                : 5 frames
Codec ID                                 : avc1
Codec ID/Info                            : Advanced Video Coding
Duration                                 : 49mn 37s
Bit rate                                 : 3 000 Kbps
Width                                    : 1 280 pixels
Height                                   : 720 pixels
Display aspect ratio                     : 16:9
Frame rate mode                          : Constant
Frame rate                               : 29.000 fps
Color space                              : YUV
Chroma subsampling                       : 4:2:0
Bit depth                                : 8 bits
Scan type                                : Progressive
Bits/(Pixel*Frame)                       : 0.112
Stream size                              : 1.04 GiB (97%)
Writing library                          : x264 core 100 r1659 57b2e56
Encoding settings                        : cabac=1 / ref=5 / deblock=1:0:0 / analyse=0x3:0x133 / me=hex / subme=7 / psy=1 / psy_rd=1.00:0.00 / mixed_ref=1 / me_range=16 / chroma_me=1 / trellis=1 / 8x8dct=1 / cqm=0 / deadzone=21,11 / fast_pskip=1 / chroma_qp_offset=-2 / threads=12 / sliced_threads=0 / nr=0 / decimate=1 / interlaced=0 / constrained_intra=0 / bframes=3 / b_pyramid=2 / b_adapt=0 / b_bias=0 / direct=2 / weightb=1 / open_gop=0 / weightp=0 / keyint=300 / keyint_min=25 / scenecut=40 / intra_refresh=0 / rc_lookahead=40 / rc=2pass / mbtree=1 / bitrate=3000 / ratetol=1.3 / qcomp=0.50 / qpmin=10 / qpmax=51 / qpstep=4 / cplxblur=20.0 / qblur=0.5 / ip_ratio=1.41 / aq=1:1.00
Language                                 : English

Audio
ID                                       : 2
Format                                   : AAC
Format/Info                              : Advanced Audio Codec
Format profile                           : LC
Codec ID                                 : 40
Duration                                 : 49mn 37s
Bit rate mode                            : Variable
Bit rate                                 : 96.0 Kbps
Channel(s)                               : 2 channels
Channel positions                        : Front: L R
Sampling rate                            : 44.1 KHz
Compression mode                         : Lossy
Delay relative to video                  : 69ms
Stream size                              : 33.4 MiB (3%)
Language                                 : English

This video works fine in AVIdemux:

Code: [Select]
Format                                   : MPEG-4
Format profile                           : Base Media
Codec ID                                 : isom
File size                                : 175 MiB
Duration                                 : 21mn 25s
Overall bit rate mode                    : Variable
Overall bit rate                         : 1 141 Kbps

Video
ID                                       : 1
Format                                   : AVC
Format/Info                              : Advanced Video Codec
Format profile                           : High@L3.1
Format settings, CABAC                   : Yes
Format settings, ReFrames                : 5 frames
Codec ID                                 : avc1
Codec ID/Info                            : Advanced Video Coding
Duration                                 : 21mn 25s
Bit rate                                 : 1 027 Kbps
Maximum bit rate                         : 3 869 Kbps
Width                                    : 720 pixels
Height                                   : 404 pixels
Display aspect ratio                     : 16:9
Frame rate mode                          : Constant
Frame rate                               : 23.976 fps
Color space                              : YUV
Chroma subsampling                       : 4:2:0
Bit depth                                : 8 bits
Scan type                                : Progressive
Bits/(Pixel*Frame)                       : 0.147
Stream size                              : 157 MiB (90%)
Writing library                          : x264 core 128 r2216 198a7ea
Encoding settings                        : cabac=1 / ref=5 / deblock=1:1:1 / analyse=0x3:0x133 / me=umh / subme=9 / psy=1 / psy_rd=1.00:0.00 / mixed_ref=1 / me_range=16 / chroma_me=1 / trellis=2 / 8x8dct=1 / cqm=0 / deadzone=21,11 / fast_pskip=1 / chroma_qp_offset=-2 / threads=18 / lookahead_threads=3 / sliced_threads=0 / nr=0 / decimate=1 / interlaced=0 / bluray_compat=0 / constrained_intra=0 / bframes=3 / b_pyramid=2 / b_adapt=2 / b_bias=0 / direct=3 / weightb=1 / open_gop=0 / weightp=2 / keyint=250 / keyint_min=23 / scenecut=40 / intra_refresh=0 / rc_lookahead=60 / rc=crf / mbtree=1 / crf=20.0 / qcomp=0.60 / qpmin=0 / qpmax=69 / qpstep=4 / ip_ratio=1.40 / aq=1:1.00
Matrix coefficients                      : BT.709

Audio
ID                                       : 2
Format                                   : AAC
Format/Info                              : Advanced Audio Codec
Format profile                           : LC
Codec ID                                 : 40
Duration                                 : 21mn 25s
Bit rate mode                            : Variable
Bit rate                                 : 110 Kbps
Maximum bit rate                         : 141 Kbps
Channel(s)                               : 2 channels
Channel positions                        : Front: L R
Sampling rate                            : 48.0 KHz
Compression mode                         : Lossy
Delay relative to video                  : 83ms
Stream size                              : 16.8 MiB (10%)

styrol

  • Hero Member
  • *****
  • Posts: 533
Re: Can't use navigation slider 2.6.0_win64
« Reply #3 on: October 11, 2012, 03:24:11 PM »
Stats don't help. If you can't navigate in your movie then timestamps are probably missing. You may have a chance by remuxing your file as MKV using AVIDEMUX or MP4 (not AVI!) using WinFF.

unknownsoldierx

  • Newbie
  • *
  • Posts: 12
Re: Can't use navigation slider 2.6.0_win64
« Reply #4 on: October 11, 2012, 04:21:10 PM »
Tried loading the file in Avidemux and saving it as MKV.  Resulting MKV still causes the issue.

I finally found an old mp4 I can upload.  Cut a 1 minute sample.  Produces the same issue in Avidemux.

http://sdrv.ms/SU0vEC

styrol

  • Hero Member
  • *****
  • Posts: 533
Re: Can't use navigation slider 2.6.0_win64
« Reply #5 on: October 11, 2012, 07:39:45 PM »
No problem here (ADM 2.6r8180 on OS X) with your MP4 file using navigation sliders and keyframe buttons.

Is it a 32bit/64bit version issue? Try the 32bit version.
« Last Edit: October 11, 2012, 07:42:57 PM by styrol »

unknownsoldierx

  • Newbie
  • *
  • Posts: 12
Re: Can't use navigation slider 2.6.0_win64
« Reply #6 on: October 11, 2012, 11:16:54 PM »
Tried 2.6.0_win32, 2.5.6-1_win32, and 2.5.6-1_win64.  Each behaves the same.  Although, the slider is not quite as erratic as in 2.6.0_win64.  It jumps around, but if I move the mouse slowly enough and just a certain way, I can get the cursor stop land where I want it to.

styrol

  • Hero Member
  • *****
  • Posts: 533
Re: Can't use navigation slider 2.6.0_win64
« Reply #7 on: October 11, 2012, 11:47:02 PM »
For h.264 encoded video you have to use ADM 2.6, otherwise you run into AV sync issues.

Use the keyframe buttons (or arrow up and down on the keyboard) for precise navigation.

unknownsoldierx

  • Newbie
  • *
  • Posts: 12
Re: Can't use navigation slider 2.6.0_win64
« Reply #8 on: October 12, 2012, 07:26:21 AM »
I only tried the older versions as a test.  Using the up and down arrows works, although it's not as comfortable to use as the mouse.

Maybe this is just a problem specific to the GUI in the Windows version.  Would be great if someone else running Windows 7 x64 could test the clip I uploaded.