Author Topic: [solved] 2.6.6 - error: cannot go to next/previous keyframe on mkv containers.  (Read 6270 times)

hefestus

  • Newbie
  • *
  • Posts: 14
Most (90%) of the mkv files I use as source to cut videos give this seek error while seeking with the arrow key or jog. Work around is to move the position indicator a bit further or back with mouse and than seek again to the next error. Average 10-20 errors on full hd mkv rip.
No problem with mp4 or avi container!

Using 2.6.6/64 on win 8.
Try everything  2.6.6 /32
downgrading to 2.6.5

I downgrade to 2.6.4 which was "working" previously except crashing on 40% of mkv containers. Still the same seek error. De install allavidemux versions and clean every trace in registry. Install again 2.6.4 still seek errors.
 

Please help
« Last Edit: November 20, 2013, 06:35:25 PM by hefestus »

mean

  • Global Moderator
  • Hero Member
  • *****
  • Posts: 10974
Re: 2.6.6 - error: cannot go to next/previous keyframe on mkv containers.
« Reply #1 on: November 16, 2013, 05:36:08 PM »
small sample video ?

hefestus

  • Newbie
  • *
  • Posts: 14
Re: 2.6.6 - error: cannot go to next/previous keyframe on mkv containers.
« Reply #2 on: November 16, 2013, 06:18:35 PM »
How can I give you small sample video when this is about full hd rips of p2p, torrent and scene newest/and old too BluRay or hdtv rips of movies and tv shows?

I cut with avidemux 2.6.6 the portion with error. copy mode from the original mkv file. Shows seek error at 00:00:10.969 when I load in avidemux.

Code: [Select]
segment: http://dfiles.eu/files/dvazehkrz

original: bit.ly/1hNZtN9

hefestus

  • Newbie
  • *
  • Posts: 14
Re: 2.6.6 - error: cannot go to next/previous keyframe on mkv containers.
« Reply #3 on: November 18, 2013, 03:51:56 AM »
Maybe this helps! This info from downloded video that gives more than 20 next/previous keyframe errors.

This is the latest TV show from P2P nearly all (strange that's not all) .mkv files I download from verious sources, torrent, uploaded, rapidgator ... and various sites and boards have the same problem. Some though few 10% are OK.



General
Unique ID                                : 86308548690255485950044681036182734829 (0x40EE6BFD91D858E930E8F96E0B1647ED)
Complete name                            : 33333333333333333333333333333333333
Format                                   : Matroska
Format version                           : Version 4 / Version 2
File size                                : 1.19 GiB
Duration                                 : 59mn 44s
Overall bit rate                         : 2 850 Kbps
Encoded date                             : UTC 2013-11-18 03:18:40
Writing application                      : mkvmerge v6.0.0 ('Coming Up For Air') built on Jan 20 2013 10:28:01
Writing library                          : libebml v1.3.0 + libmatroska v1.4.0

Video
ID                                       : 1
Format                                   : AVC
Format/Info                              : Advanced Video Codec
Format profile                           : High@L4.1
Format settings, CABAC                   : Yes
Format settings, ReFrames                : 5 frames
Codec ID                                 : V_MPEG4/ISO/AVC
Duration                                 : 59mn 44s
Bit rate                                 : 2 409 Kbps
Width                                    : 1 280 pixels
Height                                   : 720 pixels
Display aspect ratio                     : 16:9
Frame rate mode                          : Constant
Frame rate                               : 23.976 fps
Color space                              : YUV
Chroma subsampling                       : 4:2:0
Bit depth                                : 8 bits
Scan type                                : Progressive
Bits/(Pixel*Frame)                       : 0.109
Stream size                              : 1.01 GiB (85%)
Writing library                          : x264 core 140 r2377 1ca7bb9
Encoding settings                        : cabac=1 / ref=5 / deblock=1:0:0 / analyse=0x3:0x113 / me=umh / subme=8 / psy=1 / psy_rd=1.00:0.00 / mixed_ref=1 / me_range=16 / chroma_me=1 / trellis=1 / 8x8dct=1 / cqm=0 / deadzone=21,11 / fast_pskip=1 / chroma_qp_offset=-2 / threads=18 / lookahead_threads=3 / sliced_threads=0 / nr=0 / decimate=1 / interlaced=0 / bluray_compat=0 / constrained_intra=0 / bframes=3 / b_pyramid=2 / b_adapt=2 / b_bias=0 / direct=3 / weightb=1 / open_gop=0 / weightp=2 / keyint=250 / keyint_min=23 / scenecut=40 / intra_refresh=0 / rc_lookahead=50 / rc=crf / mbtree=1 / crf=18.0 / qcomp=0.60 / qpmin=0 / qpmax=69 / qpstep=4 / ip_ratio=1.40 / aq=1:1.00
Language                                 : English
Default                                  : Yes
Forced                                   : No
Matrix coefficients                      : BT.709

Audio
ID                                       : 2
Format                                   : AC-3
Format/Info                              : Audio Coding 3
Mode extension                           : CM (complete main)
Format settings, Endianness              : Big
Codec ID                                 : A_AC3
Duration                                 : 59mn 44s
Bit rate mode                            : Constant
Bit rate                                 : 384 Kbps
Channel(s)                               : 2 channels
Channel positions                        : Front: L R
Sampling rate                            : 48.0 KHz
Bit depth                                : 16 bits
Compression mode                         : Lossy
Stream size                              : 164 MiB (13%)
Default                                  : Yes
Forced                                   : No

I'll post the info from the file that don't give error as I encounter one!
« Last Edit: November 18, 2013, 06:48:07 AM by mean »

mean

  • Global Moderator
  • Hero Member
  • *****
  • Posts: 10974
Re: 2.6.6 - error: cannot go to next/previous keyframe on mkv containers.
« Reply #4 on: November 19, 2013, 06:35:23 AM »
Should be fixed in the next build
(tomorrow morning)

mean

  • Global Moderator
  • Hero Member
  • *****
  • Posts: 10974
Re: 2.6.6 - error: cannot go to next/previous keyframe on mkv containers.
« Reply #5 on: November 19, 2013, 07:16:41 AM »
nightly updated

hefestus

  • Newbie
  • *
  • Posts: 14
Re: 2.6.6 - error: cannot go to next/previous keyframe on mkv containers.
« Reply #6 on: November 20, 2013, 04:45:20 PM »
Great thanx. It works! I tried on few .mkv full rips and works fine.

So: 2.6.6 (r8964) /64 solved this bug.
« Last Edit: November 20, 2013, 06:34:56 PM by hefestus »