Author Topic: AAC Unterschiede  (Read 101 times)

Laui

  • Newbie
  • *
  • Posts: 9
AAC Unterschiede
« on: January 26, 2019, 08:45:53 AM »
Hi, was sind die Unterschiede zwischen:
AAC (FDK), AAC (Faac) und AAC (lav) die zur Auswahl stehen im Dropdown-Menü?
Welches dieser AAC ist hier enthalten?:
Code: [Select]
General
Complete name                            : video.mp4
Format                                   : MPEG-4
Format profile                           : Base Media
Codec ID                                 : isom (isom/iso2/avc1/mp41)
File size                                : 549 MiB
Duration                                 : 1 h 44 min
Overall bit rate                         : 736 kb/s
Writing application                      : Lavf58.24.100

Video
ID                                       : 1
Format                                   : AVC
Format/Info                              : Advanced Video Codec
Format profile                           : High@L4.2
Format settings                          : CABAC / 4 Ref Frames
Format settings, CABAC                   : Yes
Format settings, ReFrames                : 4 frames
Codec ID                                 : avc1
Codec ID/Info                            : Advanced Video Coding
Duration                                 : 1 h 44 min
Bit rate                                 : 636 kb/s
Width                                    : 720 pixels
Height                                   : 388 pixels
Display aspect ratio                     : 1.85:1
Frame rate mode                          : Constant
Frame rate                               : 23.976 (24000/1001) FPS
Color space                              : YUV
Chroma subsampling                       : 4:2:0
Bit depth                                : 8 bits
Scan type                                : Progressive
Bits/(Pixel*Frame)                       : 0.095
Stream size                              : 475 MiB (86%)
Writing library                          : x264 core 157
Encoding settings                        : cabac=1 / ref=5 / deblock=1:0:0 / analyse=0x3:0x113 / me=umh / subme=8 / psy=1 / psy_rd=1.00:0.00 / mixed_ref=1 / me_range=16 / chroma_me=1 / trellis=1 / 8x8dct=1 / cqm=0 / deadzone=21,11 / fast_pskip=1 / chroma_qp_offset=-2 / threads=6 / lookahead_threads=1 / sliced_threads=0 / nr=0 / decimate=1 / interlaced=0 / bluray_compat=0 / constrained_intra=0 / bframes=16 / b_pyramid=1 / b_adapt=1 / b_bias=0 / direct=3 / weightb=1 / open_gop=0 / weightp=2 / keyint=96 / keyint_min=9 / scenecut=40 / intra_refresh=0 / rc_lookahead=40 / rc=crf / mbtree=1 / crf=24.0 / qcomp=0.60 / qpmin=0 / qpmax=69 / qpstep=4 / ip_ratio=1.40 / aq=1:1.00

Audio
ID                                       : 2
Format                                   : AAC
Format/Info                              : Advanced Audio Codec
Format profile                           : LC
Codec ID                                 : mp4a-40-2
Duration                                 : 1 h 44 min
Bit rate mode                            : Constant
Bit rate                                 : 96.0 kb/s
Channel(s)                               : 2 channels
Channel positions                        : Front: L R
Sampling rate                            : 48.0 kHz
Frame rate                               : 46.875 FPS (1024 SPF)
Compression mode                         : Lossy
Stream size                              : 70.8 MiB (13%)
Default                                  : Yes
Alternate group                          : 1

eumagga0x2a

  • Moderator
  • Hero Member
  • *****
  • Posts: 2527
Re: AAC Unterschiede
« Reply #1 on: January 26, 2019, 10:16:25 AM »
Die Aufzählung listet unterschiedliche in Avidemux verfügbare AAC-Encoder auf, sie unterscheiden sich bezüglich Qualität, Geschwindigkeit und Features. Welcher Encoder eine bestimmte LC AAC-Audiospur generiert hat, kann man im nachhinein anhand vorliegender Angaben nicht sagen und auch sonst nur vermuten.