February 25, 2021, 04:45:19 PM

News:

--


Converting mkv to DVD

Started by Jason Montana, December 30, 2020, 12:33:37 AM

Previous topic - Next topic

Jason Montana

Converting mkv to DVD

settings

destination aspect ratio - 16:9
audio - mp2av

filters
aspect ratio - wide (16:9)
sws size - 720x480

Video Output

mediainfo information - encoded mpg file defaulted to a 4
:3 aspect ratio instead of the 16:9 selected.

is there a fix for this?

Thank You
Have A Great day
justmonty

eumagga0x2a

16:9 (wide) display aspect ratio needs to be enabled in the configuration of the MPEG-2 "Mpeg2 (ff)" encoder. The destination pixel size of 720x480 is correct for NTSC, i.e. for 30000/1001 frame rate.

Please make sure you use the latest nightly build --> https://avidemux.org/nightly/

Jason Montana

Thank you for the reply, here are the settings that I selected

Video Output settings

configure
 aspect ratio - wide (16:9)
 two threads
 constant Quantizer
 Quantizer - 2

resulting mpeg file defaults to 4:3 instead of the 16:9 that was selected.


Have A Great day
justmonty

eumagga0x2a

Works fine for me with the settings you mentioned:

mediainfo mpg2-wide.mpg
General
Complete name                            : mpg2-wide.mpg
Format                                   : MPEG-PS
File size                                : 28.7 MiB
Duration                                 : 1 min 1 s
Overall bit rate mode                    : Variable
Overall bit rate                         : 3 888 kb/s

Video
ID                                       : 224 (0xE0)
Format                                   : MPEG Video
Format version                           : Version 2
Format profile                           : Main@Main
Format settings                          : BVOP
Format settings, BVOP                    : Yes
Format settings, Matrix                  : Default
Format settings, GOP                     : M=3, N=18
Duration                                 : 1 min 1 s
Bit rate mode                            : Variable
Bit rate                                 : 3 619 kb/s
Maximum bit rate                         : 9 000 kb/s
Width                                    : 720 pixels
Height                                   : 576 pixels
Display aspect ratio                     : 16:9
Frame rate                               : 25.000 FPS
Standard                                 : PAL
Color space                              : YUV
Chroma subsampling                       : 4:2:0
Bit depth                                : 8 bits
Scan type                                : Progressive
Compression mode                         : Lossy
Bits/(Pixel*Frame)                       : 0.349
Time code of first frame                 : 00:00:00:00
Time code source                         : Group of pictures header
GOP, Open/Closed                         : Open
GOP, Open/Closed of first frame          : Closed
Stream size                              : 26.7 MiB (93%)

Audio
ID                                       : 189 (0xBD)-128 (0x80)
Format                                   : AC-3
Format/Info                              : Audio Coding 3
Commercial name                          : Dolby Digital
Muxing mode                              : DVD-Video
Duration                                 : 1 min 1 s
Bit rate mode                            : Constant
Bit rate                                 : 192 kb/s
Channel(s)                               : 2 channels
Channel layout                           : L R
Sampling rate                            : 48.0 kHz
Frame rate                               : 31.250 FPS (1536 SPF)
Compression mode                         : Lossy
Stream size                              : 1.41 MiB (5%)
Service kind                             : Complete Main

Menu


Do you use the latest nightly? If I remember correctly, it was broken a really long time ago, fixed since ages.

Jason Montana

Thank You very much.
Now using nightly build of 12/17/2020 alls well.

Again thank you and have a very Happy New Year.


Have A Great day
justmonty