October 23, 2021, 08:26:13 AM

News:

--


Débit élevé en 2 passes XviD

Started by Dagobert_78, April 18, 2021, 08:50:32 AM

Previous topic - Next topic

Dagobert_78

Bonjour à tous,

Inclus toutes version AVIdemux de la 2.7.7 à la 2.7.9 (du 26.03.2021).

J'ai un soucis lorsque j'effectue une conversion vers du Mpeg4 ASP (xvid4) en 2 passes.

Je sélectionne : 2 passes - bitrate moyen : 1'500
Mais je me retrouve avec un fichier AVI avec un bitrate de 10'800 kbps

Si je tente, un : 2 passes à 1'000, il en résulte un AVI avec 115'330 kbps  :o

En mode 1 passe, le débit est respecté.
Pas de soucis non plus avec le Mpeg4 AVC (x264) en 2 passes.

Auriez-vous une idée de ce qui pourrait provoquer cela ?

eumagga0x2a

Bonjour,

Je ne peux reproduire le problème signalé ni avec la version officielle VC++ 210417 sous Windows 10 ni avec mes propres versions sous Linux et Windows. En mode 2 passes, le débit spécifié est respecté (jusqu'à une certaine valeur maximale spécifique à une vidéo particulière) presque exactement.

Dois-je faire quelque chose de spécial pour pouvoir reproduire le problème?

Dagobert_78

Bonsoir Eumagga.

Hélas, je ne vois pas comment tu pourrais le reproduire.
j'avais oublié de préciser que cela ce produit sur 2 de mes PC.


éventuellement, les vidéos que je souhaitent convertir peuvent peut être poser problème.

Il sagit de vidéo de ma caméra embarquée.
Format MPAG-4 (Quick Time) AVC @ 11,9Mo/s

eumagga0x2a

Bonjour Dagobert,

Quote from: Dagobert_78 on April 18, 2021, 05:56:46 PMIl sagit de vidéo de ma caméra embarquée.
Format MPAG-4 (Quick Time) AVC @ 11,9Mo/s

Comment cela peut-il fonctionner? 11,9 Mo/s = 11.900 kbps, ~8 fois plus élevé que 1.500 kbps. De plus, H.264 (MPEG-4 AVC) est un codec beaucoup plus efficace que Xvid. Sauf si tu réduis considérablement l'échelle de la vidéo, il s'agit d'un débit binaire trop bas pour cette source.

Dagobert_78

re-bonjour.

Suite à ta remarque eumagga0x2a sur le débit de la vidéo originel, j'ai refait des test.


Vidéo originelle : XviD 1.3.7 @ 4'000 kbps

Conversion vers du Mpeg4 ASP (xvid4) en 2 passes.

Je sélectionne : 2 passes - bitrate moyen : 2'000 kbps
Mais je me retrouve avec un fichier AVI avec un bitrate de 14'080 kbps


testé avec AVIdemux v2.7.9 (du 26.04.2021)

eumagga0x2a

Bonjour,

Vidéo originelle, crée par Avidemux 2.7.9 VC++ 210510 (Xvid 1.3.5) :

General
Complete name                           : C:\Users\<*caviardé*>.mp4
Format                                  : MPEG-4
Format profile                          : Base Media
Codec ID                                : isom (isom/iso2/mp41)
File size                               : 81.3 MiB
Duration                                : 2 min 46 s
Overall bit rate mode                   : Variable
Overall bit rate                        : 4 101 kb/s
Writing application                     : Lavf58.76.100

Video
ID                                      : 1
Format                                  : MPEG-4 Visual
Format profile                          : Advanced Simple@L4
Format settings                         : BVOP
Format settings, BVOP                   : Yes
Format settings, QPel                   : No
Format settings, GMC                    : No warppoints
Format settings, Matrix                 : Default (H.263)
Codec ID                                : mp4v-20
Duration                                : 2 min 46 s
Source duration                         : 2 min 45 s
Bit rate mode                           : Variable
Bit rate                                : 3 984 kb/s
Maximum bit rate                        : 9 000 kb/s / 9 000 kb/s
Width                                   : 1 920 pixels
Height                                  : 1 080 pixels
Display aspect ratio                    : 16:9
Frame rate mode                         : Constant
Frame rate                              : 50.000 FPS
Color space                             : YUV
Chroma subsampling                      : 4:2:0
Bit depth                               : 8 bits
Scan type                               : Progressive
Compression mode                        : Lossy
Bits/(Pixel*Frame)                      : 0.038
Stream size                             : 75.3 MiB (93%)
Source stream size                      : 78.6 MiB (97%)
Writing library                         : XviD 67
mdhd_Duration                           : 166220

Audio
ID                                      : 2
Format                                  : MPEG Audio
Format version                          : Version 1
Format profile                          : Layer 3
Codec ID                                : mp4a-6B
Duration                                : 2 min 45 s
Source duration                         : 2 min 45 s
Bit rate mode                           : Constant
Bit rate                                : 128 kb/s
Channel(s)                              : 2 channels
Sampling rate                           : 48.0 kHz
Compression mode                        : Lossy
Stream size                             : 2.53 MiB (3%)
Source stream size                      : 2.53 MiB (3%)
Default                                 : Yes
Alternate group                         : 1
mdhd_Duration                           : 165776

convertie vers MPEG-4 (l'encodeur: xvid4) en 2 passes à bitrate moyen 2000 kbps

adm.videoCodec("xvid4", "params=2PASSBITRATE=2000", "profile=244", "rdMode=3", "motionEstimation=3", "cqmMode=0", "arMode=1", "maxBFrame=2", "maxKeyFrameInterval=200", "nbThreads=99", "qMin=2", "qMax=25", "rdOnBFrame=True"
, "hqAcPred=True", "optimizeChrome=True", "trellis=True", "useXvidFCC=True", "enableFrameDrop=False", "frameDropRatio=50")

par le même logiciel :

General
Complete name                           : C:\Users\<*caviardé*>.avi
Format                                  : AVI
Format/Info                             : Audio Video Interleave
File size                               : 48.5 MiB
Duration                                : 3 min 19 s
Overall bit rate                        : 2 044 kb/s

Video
ID                                      : 0
Format                                  : MPEG-4 Visual
Format profile                          : Advanced Simple@L4
Format settings                         : BVOP2
Format settings, BVOP                   : 2
Format settings, QPel                   : No
Format settings, GMC                    : No warppoints
Format settings, Matrix                 : Default (H.263)
Codec ID                                : XVID
Codec ID/Hint                           : XviD
Duration                                : 2 min 46 s
Bit rate                                : 2 293 kb/s
Width                                   : 1 920 pixels
Height                                  : 1 080 pixels
Display aspect ratio                    : 16:9
Frame rate                              : 50.000 FPS
Color space                             : YUV
Chroma subsampling                      : 4:2:0
Bit depth                               : 8 bits
Scan type                               : Progressive
Compression mode                        : Lossy
Bits/(Pixel*Frame)                      : 0.022
Stream size                             : 45.4 MiB (93%)
Writing library                         : XviD 67

Audio
ID                                      : 1
Format                                  : MPEG Audio
Format version                          : Version 1
Format profile                          : Layer 3
Codec ID                                : 55
Codec ID/Hint                           : MP3
Duration                                : 3 min 19 s
Source duration                         : 2 min 45 s
Bit rate mode                           : Constant
Bit rate                                : 128 kb/s
Channel(s)                              : 2 channels
Sampling rate                           : 48.0 kHz
Compression mode                        : Lossy
Stream size                             : 2.53 MiB (5%)
Alignment                               : Aligned on interleaves
Interleave, duration                    : 24  ms (1.20 video frame)

La précision du calcul du débit n'est pas parfaite (2293 kbps au lieu de 2000 kbps), mais presque parfaite, rien de tel que l'énorme écart que tu signales. Désolé, je ne parviens toujours pas à reproduire le problème. Fournis la sortie de l'outil MediaInfo pour la vidéo originale et la sortie d'Avidemux s'il te plaît.

Dagobert_78

May 28, 2021, 05:30:16 AM #6 Last Edit: May 28, 2021, 05:34:43 AM by Dagobert_78
cleantalk m'empêche de poster

CleanTalk: *** Forbidden. Please enable JavaScript. Contains contacts. ***