Author Topic: Choose second video stream?  (Read 2577 times)

accstudent

  • Newbie
  • *
  • Posts: 2
Choose second video stream?
« on: May 05, 2012, 07:44:54 PM »
Hi all,

Am I able to specify video streams in Avidemux?

I have some WMV files, I think ASF encoded (if that's the right term). I've tried to convert them to AVI using Avidemux2 (Win64), but the quality is always substantially degraded (very muddy and pixelated), no matter how high I set the conversion quality (but I might not be tweaking the settings properly).

According to MediaInfo, there are two video streams in these files (see below). Someone in another forum has suggested that the problem might be that Avidemux isn't using the better quality video stream.

Thanks in advance!

MediaInfo results:
Code: [Select]
General
Complete name                            : I:\LS1.wmv
Format                                   : Windows Media
File size                                : 1.38 MiB
Duration                                 : 22s 121ms
Overall bit rate mode                    : Constant
Overall bit rate                         : 525 Kbps
Maximum Overall bit rate                 : 547 Kbps
Movie name                               :
Performer                                :
Encoded date                             : UTC 2005-10-03 03:31:27.970

Video #1
ID                                       : 2
Format                                   : WMV2
Codec ID                                 : WMV2
Codec ID/Info                            : Windows Media Video 8
Description of the codec                 : Windows Media Video V8
Duration                                 : 22s 133ms
Bit rate mode                            : Constant
Bit rate                                 : 25.2 Kbps
Width                                    : 320 pixels
Height                                   : 240 pixels
Display aspect ratio                     : 4:3
Frame rate                               : 15.000 fps
Bit depth                                : 8 bits
Bits/(Pixel*Frame)                       : 0.022
Stream size                              : 68.0 KiB (5%)
Language                                 : English (US)

Video #2
ID                                       : 3
Format                                   : WMV2
Codec ID                                 : WMV2
Codec ID/Info                            : Windows Media Video 8
Description of the codec                 : Windows Media Video V8
Duration                                 : 22s 122ms
Bit rate mode                            : Constant
Bit rate                                 : 424 Kbps
Width                                    : 320 pixels
Height                                   : 240 pixels
Display aspect ratio                     : 4:3
Frame rate                               : 29.970 fps
Bit depth                                : 8 bits
Bits/(Pixel*Frame)                       : 0.184
Stream size                              : 1.12 MiB (81%)
Language                                 : English (US)

Audio
ID                                       : 1
Format                                   : WMA
Format version                           : Version 2
Codec ID                                 : 161
Codec ID/Info                            : Windows Media Audio
Description of the codec                 : Windows Media Audio 9 -  64 kbps, 44 kHz, stereo (A/V) 1-pass CBR
Duration                                 : 22s 120ms
Bit rate mode                            : Constant
Bit rate                                 : 64.0 Kbps
Channel(s)                               : 2 channels
Sampling rate                            : 44.1 KHz
Bit depth                                : 16 bits
Stream size                              : 173 KiB (12%)
Language                                 : English (US)

Agent_007

  • Global Moderator
  • Hero Member
  • *****
  • Posts: 3163
Re: Choose second video stream?
« Reply #1 on: May 06, 2012, 12:44:22 PM »
You have to remux new WMV file with just one video track since AFAIK AVIdemux doesn't have video track selection for ASF/WMV. IIRC tool called ASFbin can do the remux where video and audiotracks are removed.
« Last Edit: May 06, 2012, 12:46:58 PM by Agent_007 »
I am away between 15th of May - 15th of June. (yes, I am playing D3)

accstudent

  • Newbie
  • *
  • Posts: 2
Re: Choose second video stream?
« Reply #2 on: May 06, 2012, 03:11:40 PM »
Thanks, someone else turned me on to ASFbin last night, it does exactly what you said. :)