Author Topic: Avidemux makes all videos choppy regardless of settings  (Read 3633 times)

Robby

  • Newbie
  • *
  • Posts: 3
Avidemux makes all videos choppy regardless of settings
« on: December 22, 2012, 07:38:26 PM »
Hello guys.

I want to begin by saying that i don't put any blame on the software for causing the issues i'm having. It may very well be a bad mix of source media and something else.

I used to record adventures in Skyrim with PlayClaw game recorder, which works excellently. I also used to re-encode these videos with Avidemux to make them smaller afterwards and to make them brighter, as the MJPEG codec that PlayClaw uses makes videos darker. This also worked fine. The problem is now when i've got better hardware in the PC and want to start recording in 60 FPS instead of 40 and me having forgotten the settings i used to use in Avidemux that worked well.

The created source media is flawless when played back in VLCMP. Looks exactly like when playing the game except for being darker. The problem is after trying to re-encode the media to AVC video with MP3 audio, in either container. The frame rate is high, but the video has a micro-lag every 0.5 second or so. So even though the new file is 40 MB instead of 350 MB (which certainly should put the performance of the harddrive out of the question) the video actually lags as if the PC can't output it properly.

What could be causing this? Is this a common issue? I really can't figure this out.

Here's the media info from both files:

Original recording

General
Complete name                            : E:\Skyrim\tesv 2012-12-22 19-50-08.avi
Format                                   : AVI
Format/Info                              : Audio Video Interleave
File size                                : 367 MiB
Duration                                 : 41s 750ms
Overall bit rate                         : 73.7 Mbps
Writing library                          : AVI AVI AVI AVI

Video
ID                                       : 0
Format                                   : JPEG
Codec ID                                 : MJPG
Duration                                 : 41s 750ms
Bit rate                                 : 72.2 Mbps
Width                                    : 1 600 pixels
Height                                   : 900 pixels
Display aspect ratio                     : 16:9
Frame rate                               : 60.000 fps
Color space                              : YUV
Chroma subsampling                       : 4:2:0
Bit depth                                : 8 bits
Compression mode                         : Lossy
Bits/(Pixel*Frame)                       : 0.835
Stream size                              : 359 MiB (98%)

Audio
ID                                       : 1
Format                                   : PCM
Format settings, Endianness              : Little
Format settings, Sign                    : Signed
Codec ID                                 : 1
Duration                                 : 41s 500ms
Bit rate mode                            : Constant
Bit rate                                 : 1 536 Kbps
Channel(s)                               : 2 channels
Sampling rate                            : 48.0 KHz
Bit depth                                : 16 bits
Stream size                              : 7.60 MiB (2%)
Interleave, duration                     : 503 ms (30.18 video frames)



Avidemux video

General
Complete name                            : B:\skyrim-12-22.mp4
Format                                   : MPEG-4
Format profile                           : Base Media
Codec ID                                 : isom
File size                                : 11.5 MiB
Duration                                 : 41s 750ms
Overall bit rate                         : 2 302 Kbps
Movie name                               : skyrim-12-22.mp4
Writing application                      : Lavf53.24.0

Video
ID                                       : 1
Format                                   : AVC
Format/Info                              : Advanced Video Codec
Format profile                           : High@L4.2
Format settings, CABAC                   : Yes
Format settings, ReFrames                : 4 frames
Codec ID                                 : avc1
Codec ID/Info                            : Advanced Video Coding
Duration                                 : 41s 750ms
Bit rate                                 : 2 098 Kbps
Width                                    : 1 600 pixels
Height                                   : 900 pixels
Display aspect ratio                     : 16:9
Frame rate mode                          : Constant
Frame rate                               : 60.000 fps
Color space                              : YUV
Chroma subsampling                       : 4:2:0
Bit depth                                : 8 bits
Scan type                                : Progressive
Bits/(Pixel*Frame)                       : 0.024
Stream size                              : 10.4 MiB (91%)
Writing library                          : x264 core 120 r2120 0c7dab9
Encoding settings                        : cabac=1 / ref=3 / deblock=1:0:0 / analyse=0x3:0x113 / me=hex / subme=9 / psy=1 / psy_rd=1.00:0.00 / mixed_ref=1 / me_range=16 / chroma_me=1 / trellis=1 / 8x8dct=1 / cqm=0 / deadzone=21,11 / fast_pskip=1 / chroma_qp_offset=-2 / threads=9 / sliced_threads=0 / nr=0 / decimate=1 / interlaced=0 / bluray_compat=0 / constrained_intra=0 / bframes=3 / b_pyramid=2 / b_adapt=1 / b_bias=0 / direct=1 / weightb=1 / open_gop=0 / weightp=2 / keyint=250 / keyint_min=25 / scenecut=40 / intra_refresh=0 / rc=cqp / mbtree=0 / qp=40 / ip_ratio=1.40 / pb_ratio=1.30 / aq=0
Matrix coefficients                      : SMPTE 240M

Audio
ID                                       : 2
Format                                   : MPEG Audio
Format version                           : Version 1
Format profile                           : Layer 3
Codec ID                                 : 6B
Duration                                 : 41s 472ms
Bit rate mode                            : Constant
Bit rate                                 : 192 Kbps
Channel(s)                               : 2 channels
Sampling rate                            : 48.0 KHz
Compression mode                         : Lossy
Delay relative to video                  : 33ms
Stream size                              : 972 KiB (8%)
Writing library                          : LAME3.99UUUUUUUhw†f
« Last Edit: December 22, 2012, 07:39:58 PM by Robby »