Recent Posts

Pages: 1 2 [3] 4 5 ... 10
21
Ich konnte mit einem aktuellen Build vom git master keinen Unterschied beim automatischen Vorschlag des Dateinamens (wird mit der .mkv als Dateiendung vorgeschlagen) beim Speichern unter Linux auf eine lokale Festplatte und auf NAS feststellen, kurz: WFM.

Ich werde vermutlich noch heute Mint Cinnamon weiter einrichten, sodass ich auf von dort auf die NAS direkt zugreifen kann und ebenfalls AVIDemux installieren.
Bin gespannt, ob das funktioniert.

Hängt vermutlich davon ab, über welches Backend NAS eingebunden ist (gvfs oder über cifs / fstab).

Mit gvfs erzeugt das Speichern als MP4 auf einer Samba-Freigabe eine kaputte Datei, wenn Streaming-Optimierung nicht deaktiviert ist.

Funktioniert einwandfrei, wenn die Freigabe über CIFS gemountet ist. Muss wohl ein Bug in gvfs oder in den von gvfs verwendeten Libraries sein.
22
Windows / Re: Avidemux 2.7.x cannot handle new Youtube video codec
« Last post by eumagga0x2a on November 17, 2019, 08:48:51 PM »
@cyberfer, please don't hijack unrelated topics, start your own, thank you. The ability to handle Vorbis in MP4 has been added to the demuxer by commit [demuxers/Mp4] Support Vorbis audio tracks, will be present in future nightlies and releases.

Please note that it is not possible to save to MP4 with a Vorbis audio track yet.

@pantau, decoding support for 8 bits AV1 was added to Avidemux code approx. two weeks ago, it is already available in current VC++ nightlies and will reach other platforms except of 32 bits Windows once their build environments get updated.

23
Windows / Re: Avidemux 2.7.x cannot handle new Youtube video codec
« Last post by cyberfer on November 17, 2019, 03:20:53 PM »
Hi to all, I have problems to open mp4 videos with ogg (YouTube) audio. The application crash:
This is one of file with ogg audio that crash the application
I want to change container from MP4 (AVC + Ogg) to MKV (AVC + Ogg) my solution now is to use this command with ffmpeg64.exe:
ffmpeg64.exe" -i "E:\Video\2014\Ellie Goulding - Burn.mp4" -vcodec copy -acodec copy "E:\Video\2014\Ellie Goulding - Burn.mkv"
but I would like use Avidemux.
Thanks

General
Complete name                  : E:\Video\2014\Ellie Goulding - Burn.mp4
Format                         : MPEG-4
Format profile                 : Base Media
Codec ID                       : isom (isom/iso2/avc1/mp41)
File size                      : 64.7 MiB
Duration                       : 3 min 58 s
Overall bit rate               : 2 278 kb/s
Movie name                     : Ellie Goulding - Burn
Track name/Position            : 1
Writing application            : Lavf55.19.104
Cover                          : Yes
Comment                       

Video
ID                             : 1
Format                         : AVC
Format/Info                    : Advanced Video Codec
Format profile                 : High@L4
Format settings, CABAC         : Yes
Format settings, RefFrames     : 3 frames
Codec ID                       : avc1
Codec ID/Info                  : Advanced Video Coding
Duration                       : 3 min 58 s
Bit rate                       : 2 147 kb/s
Width                          : 1 920 pixels
Height                         : 1 080 pixels
Display aspect ratio           : 16:9
Frame rate mode                : Constant
Frame rate                     : 25.000 FPS
Color space                    : YUV
Chroma subsampling             : 4:2:0
Bit depth                      : 8 bits
Scan type                      : Progressive
Bits/(Pixel*Frame)             : 0.041
Stream size                    : 61.0 MiB (94%)

Audio
ID                             : 2
Format                         : Ogg
Codec ID                       : DD
Duration                       : 3 min 58 s
Bit rate mode                  : Constant
Bit rate                       : 118 kb/s
Channel(s)                     : 2 channels
Sampling rate                  : 44.1 kHz
Stream size                    : 3.36 MiB (5%)
Language                       : English
Default                        : Yes
Alternate group                : 1
24
merci

Mein Dank wird dir ewig nachschleichen. Achte auf die Schatten im Dunklen ;-)
25
User interface and Usability / Re: Avidemux as restoration tool
« Last post by Blues on November 16, 2019, 06:14:30 PM »
Unfortunately no. I'm shelving this project for now. Thanks for thinking with me.
26
IMHO unwichtig, werde mir später die automatische Ergänzung der Dateiendung beim Speichern auf smb shares aber ansehen.
27
Ok, danke. Abspeichern direkt auf eigenen Rechner läuft jedoch mit mkv Suffix
28
.mkv als Dateiendung anhängen, fertig.
29
Hallo, ich dachte zuerst ich habe mich verschaut, daher kurz eine Testdatei erstellt.

Also.
direkt auf der NAS unter Eigenschaften ist zu lesen "Binär (application/octet-stream)" OHNE mkv.
Gleiche Datei wieder auf eigenen Rechner kopiert ist es : "Video (application/x-matroska)" ohne mkv suffix.
Detailiert Dateityp: Matroska Datenstrom

Hängt es damit zusammen, dass die Ursprungsdatei eine HD Aufnahme ist? Ausgabe hatte ich mkv eingestellt. (muss ich das ändern um hd beizubehalten?)
30
User interface and Usability / Re: Avidemux as restoration tool
« Last post by eumagga0x2a on November 16, 2019, 06:02:45 PM »
Does adding an intermediate step of saving with video in copy mode with audio codec set to (L)PCM help?
Pages: 1 2 [3] 4 5 ... 10