Recent Posts

Pages: 1 ... 8 9 [10]
91
https://www.technorms.com/26760/add-remove-programs-open-menu-registry

What happens when you replace "avidemux.exe" with

"avidemux.exe --load"

in the registry key?
92
I've installed today the last avidemux 2.7 version, unisstalled 2.6 version but v2.7 doesn't appear in the list of "Open with…" programs on my computer.
Of course I've tried to choose the program from the list with right click/open with/default programs but after choosen avidemux it is ignored!!
93
Documentation & Tips / DAR (Display Aspect Ratio)
« Last post by Jan Gruuthuse on July 01, 2018, 03:38:58 AM »
aspect ratio (DAR) 4:3, 16:9, 18:9 or 64:27  can be set in Copy Mode with [Configure] in:
- MP4 Muxer
- MKV Muxer
94
f1edd30            [core/ffmpeg] Add support for FICV video codec
ubuntu 18.04 LTS 64 bit x86 SMP, QT5, x265 version 1.9: avidemux 2.7.1 180630-64bit 1804 Bionic with x265 version 2.6
95
f1edd30            [core/ffmpeg] Add support for FICV video codec
ubuntu HWE 16.04.4 LTS 64 bit x86 SMP, QT5, x265 version 1.9: avidemux 2.7.1 180630-64bit HWE Xenial with x265 version 1.9

build against:
- Linux 4.13.0-45-generic (linux-image-4.13.0-43-generic                4.13.0-43.48~16.04.1) <= CHANGED
96
Main version 2.6 / Re: FICV Codec?
« Last post by Jan Gruuthuse on June 30, 2018, 02:20:56 PM »
working now, thanks
97
MacOSX / Re: Mac OSX Yosemite/Which Download?
« Last post by Homer712 on June 30, 2018, 12:43:04 PM »
Downloaded the latest version (2.7.1) and it works perfectly on OSX Yosemite. Thank you.
98
Main version 2.6 / Re: FICV Codec?
« Last post by eumagga0x2a on June 30, 2018, 11:43:59 AM »
Should work in future nightlies (and releases) --> [core/ffmpeg] Add support for FICV video codec.

Thank you for the sample.
99
Main version 2.6 / Re: FICV Codec?
« Last post by Jan Gruuthuse on June 30, 2018, 04:20:38 AM »
ffmppeg seems to have has fic support included.
ffprobe tells:
Code: [Select]
[avi @ 0x1e61b00] non-interleaved AVI
Input #0, avi, from 'ficv.avi':
  Duration: 00:00:06.22, start: 0.000000, bitrate: 3959 kb/s
    Stream #0:0: Video: fic (FICV / 0x56434946), yuv420p, 720x540, 2181 kb/s, 50 fps, 50 tbr, 50 tbn, 50 tbc
    Stream #0:1: Audio: pcm_s16le ([1][0][0][0] / 0x0001), 44100 Hz, 2 channels, s16, 1411 kb/s

Quote
March 24, 2014, FFmpeg 2.2
- Mirillis FIC video decoder
source: https://www.ffmpeg.org/
Pages: 1 ... 8 9 [10]